La Vida Es Bella 1997 BDRip 1080p Mkv Castellano;AC3/Italiano;AC3 Sub:Esp;Ita Drama








Título Original: La vita è bella
Año: 1997
Duración: 117 min.
País: [Italia]
Director: Roberto Benigni
Guión: Roberto Benigni & Vicenzo Cerami
Música: Nicola Piovani
Fotografía: Tonino Delli Colli
Reparto: Roberto Benigni, Nicoletta Braschi, Giorgio Cantarini, Marisa Paredes, Giustino Durano, Horst Buchholz
Productora: Miramax International / Mario & Vittorio Cecchi Gori / Melampo Cinematografica
Género: Comedia. Drama | Nazismo. Holocausto. II Guerra Mundial. Comedia dramática




Código:
La Vida Es Bella BDRip 1080p.Castellano.CadagotoHD.mkv
Format : Matroska
File size : 9.07 GiB
Duration : 2h 2mn
Overall bit rate : 10.6 Mbps
Encoded date : UTC 2011-07-17 22:45:12
Writing application : mkvmerge v4.5.0 ('Speed of Light') creado el Feb 1 2011 02:10:32
Writing library : libebml v1.2.0 + libmatroska v1.1.0

Video
ID : 1
Format : AVC
Format/Info : Advanced Video Codec
Format profile : High@L4.1
Format settings, CABAC : Yes
Format settings, ReFrames : 4 frames
Codec ID : V_MPEG4/ISO/AVC
Duration : 2h 2mn
Bit rate : 9 319 Kbps
Width : 1 920 pixels
Height : 1 040 pixels
Display aspect ratio : 16:9
Frame rate : 23.976 fps
Color space : YUV
Chroma subsampling : 4:2:0
Bit depth : 8 bits
Scan type : Progressive
Bits/(Pixel*Frame) : 0.195
Stream size : 7.96 GiB (88%)
Subido Por : CadagotoHD
Language : Italian

Audio #1
ID : 2
Format : AC-3
Format/Info : Audio Coding 3
Mode extension : CM (complete main)
Codec ID : A_AC3
Duration : 2h 2mn
Bit rate mode : Constant
Bit rate : 448 Kbps
Channel(s) : 6 channels
Channel positions : Front: L C R, Side: L R, LFE
Sampling rate : 48.0 KHz
Bit depth : 16 bits
Compression mode : Lossy
Stream size : 392 MiB (4%)
Title : AC3 castellano
Language : Spanish

Audio #2
ID : 3
Format : AC-3
Format/Info : Audio Coding 3
Mode extension : CM (complete main)
Codec ID : A_AC3
Duration : 2h 2mn
Bit rate mode : Constant
Bit rate : 640 Kbps
Channel(s) : 6 channels
Channel positions : Front: L C R, Side: L R, LFE
Sampling rate : 48.0 KHz
Bit depth : 16 bits
Compression mode : Lossy
Stream size : 560 MiB (6%)
Title : AC3 italiano
Language : Italian

Text #1
ID : 4
Format : UTF-8
Codec ID : S_TEXT/UTF8
Codec ID/Info : UTF-8 Plain Text
Title : Sub castellano
Language : Spanish

Text #2
ID : 5
Format : UTF-8
Codec ID : S_TEXT/UTF8
Codec ID/Info : UTF-8 Plain Text
Title : Sub italiano
Language : Italian

Unos años antes de que comience la Segunda Guerra Mundial, un joven llamado Guido llega a un pequeño pueblo de la Toscana italiana con la intención de abrir una librería. Allí conocerá a Dora, la prometida del fascista Ferruccio, con la que conseguirá casarse y tener un hijo. Con la llegada de la guerra los tres serán internados en una campo de concentración, donde Guido hará lo imposible para hacer creer a su hijo que la terrible situación que están padeciendo es tan sólo un juego. (FILMAFFINITY)








¡Importante! Para Descargar De Linksave Deben Tener Abierto Jdownloader,Tener Instalado El Complemento Click 'n Load,
Y hacer (Click,pinchar)En Esta Imagen Cuando Entren A La Pagina LinkSave.In!







Los Links Estan Alojados En Los Siguientes Servidores!
Archivos De 800 Mb Intercambiables!



Descarga Aqui











.
Si Los Links No Estan On-Line,avisame Asi Tratare De Reponerlos!

Aportar Toma Buen Tiempo,Resubir Mucho Mas ,Agradecer No Cuesta Nada !