Robin Hood, Príncipe de los Ladrones 1991 BDRip 720p Latino/Castellano/Ingles Sub Esp


         

Resultados 1 al 2 de 2

robin hood hd

robin hood

ver pelicula robin hood principe ladrones latino

ver la pelicula Prince Of Thieves Robin Hood en audio latino online

robin hood el principe de los ladrones dvdrip latino

robin hood el principe de los ladrones en latino flv

robin hood el principe de los ladrones online

descargar pelicula robin hood principe de los ladrones subtitulada

prince of thieves de los ladrones con subtitulos online gratis

robin hood 1991 brrip 720p latino

ver online robin hood 1991 dvdrip latino

ver mejores peliculas de 1991 aventuras gratis online prince of thieves subtitulada

ver pelicula gratis robin hood el principe de los ladrones

ver robin hood online ingles subtitulada kevin costner

pelicula robin hood principe de los ladrones online latinomegavideo

robin hood 1991 online latino




  1. #1
    Usuario Avatar de cadagoto
    Fecha de Ingreso
    15 ago, 08
    Mensajes
    1,037
    Compartir en:
    Compartir en Facebook  Compartir en Twitter

    Cool Robin Hood, Príncipe de los Ladrones 1991 BDRip 720p Latino/Castellano/Ingles Sub Esp




    Robin Hood, Príncipe de los Ladrones 1991 BDRip 720p Latino/Castellano/Ingles Sub Esp







    TÍTULO ORIGINAL: Robin Hood: Prince of Thieves
    OTROS TÍTULO: Robin Hood, príncipe de los ladrones
    AÑO: 1991
    DURACIÓN: 138 min.
    PAÍS: USA
    DIRECTOR: Kevin Reynolds
    GUIÓN: Pen Densham, John Watson
    MÚSICA: Michael Kamen
    FOTOGRAFÍA: Douglas Milsome
    REPARTO: Kevin Costner, Morgan Freeman, Mary Elizabeth Mastrantonio, Alan Rickman, Christian Slater, Sean Connery, Geraldine McEwan, Michael McShane, Nick Brimble, Brian Blessed
    PRODUCTORA: Warner Bros. Pictures
    PREMIOS 1991: Nominada al Oscar: Mejor canción original
    1991: 2 nominaciones al Globo de Oro: Mejor canción original, bso
    1991: BAFTA: Mejor actor de reparto (Alan Rickman). 2 nominaciones
    GÉNERO: Aventuras | Edad Media. Siglo XIII. Capa y espada
    Robin Hood: Prince of Thieves (1991)
    BDRip 720p | XviD | AC3 | 7.34 GB | Audios: Español Latino, Español España, Inglés | Subtítulos: Español | Aventuras | 1991 |




    Código:
    General
    Complete name                    : Robin.Hood.Prince.Of.Thieves.1991.Extended.Cut.720p.BDRip.LATiNO.SPA.ENG.XviD.AC3.avi
    Format                           : AVI
    Format/Info                      : Audio Video Interleave
    Format profile                   : OpenDML
    File size                        : 7.35 GiB
    Duration                         : 2h 35mn
    Overall bit rate                 : 6 787 Kbps
    
    Video
    ID                               : 0
    Format                           : MPEG-4 Visual
    Format profile                   : Advanced Simple@L5
    Format settings, BVOP            : 2
    Format settings, QPel            : No
    Format settings, GMC             : No warppoints
    Format settings, Matrix          : Default (MPEG)
    Codec ID                         : XVID
    Codec ID/Hint                    : XviD
    Duration                         : 2h 35mn
    Bit rate                         : 5 298 Kbps
    Width                            : 1 280 pixels
    Height                           : 720 pixels
    Display aspect ratio             : 16:9
    Frame rate                       : 23.976 fps
    Color space                      : YUV
    Chroma subsampling               : 4:2:0
    Bit depth                        : 8 bits
    Scan type                        : Progressive
    Compression mode                 : Lossy
    Bits/(Pixel*Frame)               : 0.240
    Stream size                      : 5.74 GiB (78%)
    Writing library                  : XviD 1.2.1 (UTC 2008-12-04)
    Subido Por                       : CadagotoHD
    
    Audio #1
    ID                               : 1
    Format                           : AC-3
    Format/Info                      : Audio Coding 3
    Mode extension                   : CM (complete main)
    Codec ID                         : 2000
    Duration                         : 2h 35mn
    Bit rate mode                    : Constant
    Bit rate                         : 192 Kbps
    Channel(s)                       : 2 channels
    Channel positions                : Front: L R
    Sampling rate                    : 48.0 KHz
    Bit depth                        : 16 bits
    Compression mode                 : Lossy
    Delay relative to video          : 1s 500ms
    Stream size                      : 213 MiB (3%)
    Alignment                        : Split accross interleaves
    Interleave, duration             : 42 ms (1.00 video frame)
    Interleave, preload duration     : 500 ms
    
    Audio #2
    ID                               : 2
    Format                           : AC-3
    Format/Info                      : Audio Coding 3
    Mode extension                   : CM (complete main)
    Codec ID                         : 2000
    Duration                         : 2h 35mn
    Bit rate mode                    : Constant
    Bit rate                         : 640 Kbps
    Channel(s)                       : 6 channels
    Channel positions                : Front: L C R, Side: L R, LFE
    Sampling rate                    : 48.0 KHz
    Bit depth                        : 16 bits
    Compression mode                 : Lossy
    Stream size                      : 710 MiB (9%)
    Alignment                        : Split accross interleaves
    Interleave, duration             : 42 ms (1.00 video frame)
    Interleave, preload duration     : 500 ms
    
    Audio #3
    ID                               : 3
    Format                           : AC-3
    Format/Info                      : Audio Coding 3
    Mode extension                   : CM (complete main)
    Codec ID                         : 2000
    Duration                         : 2h 35mn
    Bit rate mode                    : Constant
    Bit rate                         : 640 Kbps
    Channel(s)                       : 6 channels
    Channel positions                : Front: L C R, Side: L R, LFE
    Sampling rate                    : 48.0 KHz
    Bit depth                        : 16 bits
    Compression mode                 : Lossy
    Stream size                      : 710 MiB (9%)
    Alignment                        : Split accross interleaves
    Interleave, duration             : 42 ms (1.00 video frame)
    Interleave, preload duration     : 500 ms
    Cuando Sir Robin de Locksley regresa a su hogar después de haber luchado en las Cruzadas, los habitantes de Nottingham viven en la miseria a causa de los gravosos tributos decretados por el Sheriff local. Cuando, además, descubre que su padre ha sido asesinado, decide vengar su muerte y, seguido de un compañero de aventuras sarraceno, se interna en el bosque de Sherwood.











    ¡Importante! Para Descargar De Linksave Tener Abierto Jdownloader,Tener Instalado Click 'n Load,
    Y hacer (Click,pinchar)En Esta Imagen En LinkSave.In!..... O Bajate el DLC!



    Archivos De 800 MB Intercambiables!





    Descargar Aqui Los Enlaces






    .
    Si Los Links No Estan On-Line,avisame Asi Tratare De Reponerlos!

    Aportar Toma Buen Tiempo,Resubir Mucho Mas ,Agradecer No Cuesta Nada !









  2. #2
    Administrador Avatar de huscarle
    Fecha de Ingreso
    14 ago, 05
    Ubicación
    Al otro lado del río
    Mensajes
    13,739

    Predeterminado

    Muchas gracias


Temas Similares

  1. [Ofrecido] Robin Hood - El príncipe de los ladrones (1991) DVDR NTSC *VgroupTeam*
    Por huscarle en el foro Películas DVD
    Respuestas: 76
    Último Mensaje: 22/09/2014, 21:56
  2. [Ofrecido] Robin Hood (Versión Extendida) [DVDRip][DUAL (Castellano/Inglés)][Aventuras][2010]
    Por warez en el foro Películas Descarga Directa
    Respuestas: 0
    Último Mensaje: 04/04/2011, 16:10
  3. [Ofrecido] Robin Hood 2010 [HDrip][Dual:Castellano-Ingles 5.1]
    Por CkotoHql en el foro Películas Descarga Directa
    Respuestas: 0
    Último Mensaje: 09/09/2010, 20:30
  4. [Ofrecido] Robin Hood Principe de los Ladrones
    Por hipos en el foro Películas DivX - Xvid
    Respuestas: 13
    Último Mensaje: 12/07/2007, 14:21

Etiquetas para este Tema

Publicidad  Contacto  Denuncias  Prensa  Labs  Reglas  RSS

Términos y condiciones  Políticas de privacidad

Búsqueda Avanzada
PRINCIPAL  FORO  LISTADOS DE ELINKS  CUENTA  AYUDA