Furia de Titanes 2 (2012) (Wrath of the Titans) 1080p DTS AC3 *Vgroupteam*


         

furia de titanes 2

Wrath of the Titans

Wrath of the Titans 2012 1080p Latino

furia de titanes

furia titanes 2

wrath

titanes

Wrath of the Titans

(vgroupnetwork) furia de titanes 2 (wrath of the titans) (2012) 1080p dts - ac3 (vgroupteam).mkv

titans

vgroup

rastreador celulares























  1. TÍTULO ORIGINAL: Wrath of the Titans (Clash of the Titans 2)
    AÑO: 2012
    DURACIÓN: 99 min.
    PAÍS: [Estados Unidos]
    DIRECTOR: Jonathan Liebesman
    GUIÓN: Greg Berlanti
    MÚSICA: Javier Navarrete
    FOTOGRAFÍA: Ben Davis
    REPARTO: Sam Worthington, Liam Neeson, Ralph Fiennes, Bill Nighy, Rosamund Pike, Danny Huston, Toby Kebbell, Édgar Ramírez, John Bell
    PRODUCTORA: Warner Bros. Pictures
    GÉNERO: Fantástico. Acción | Antigua Grecia. Mitología. Secuela. 3-D


    Diez años después de los sucesos de “Furia de titanes”, Perseo (Sam Worthington) está decidido a llevar una vida tranquila con su hijo Helio. Sin embargo, los dioses, debilitados por la falta de fe de la humanidad, pierden el control sobre los Titanes, cuyo líder no es otro que Kronos, el padre de Zeus (Liam Neeson), Hades (Ralph Fiennes) y Poseidón (Danny Huston). Cuando Hades y Ares (Edgar Ramírez) llegan a un acuerdo con Kronos para capturar a Zeus, entonces Perseo tendrá que abandonar su apacible vida para rescatarlo, misión en la que mcuenta con la ayuda de Andrómeda (Rosamund Pike), Agénor (Toby Kebbell) y Hefesto (Bill Nighy).

    Complete name: : \(Vgroupnetwork) Furia de Titanes 2 (Wrath Of The Titans) (2012) 1080p DTS - AC3 (Vgroupteam).mkv
    Format: Matroska
    File size: 7.92 GiB
    Duration: 1h 39mn
    Overall bit rate: 11.4 Mbps
    Encoded date: UTC 2012-06-21 23:33:25
    Writing application: mkvmerge v4.0.0 ('The Stars were mine') built on Jun 6 2010 16:18:42
    Writing library: libebml v1.0.0 + libmatroska v1.0.0

    Video
    ID: 1
    Format: AVC
    Format/Info: Advanced Video Codec
    Format profile: High@L4.0
    Format settings, CABAC: Yes
    Format settings, ReFrames: 4 frames
    Codec ID: V_MPEG4/ISO/AVC
    Duration: 1h 39mn
    Bit rate: 9 253 Kbps
    Width: 1 920 pixels
    Height: 1 080 pixels
    Display aspect ratio: 16:9
    Frame rate mode: Variable
    Frame rate: 23.976 fps
    Color space: YUV
    Chroma subsampling: 4:2:0
    Bit depth: 8 bits
    Scan type: Progressive
    Bits/(Pixel*Frame): 0.186
    Stream size: 6.27 GiB (79%)
    Writing library: x264 core 112

    Audio #1
    ID: 2
    Format: AC-3
    Format/Info: Audio Coding 3
    Mode extension: CM (complete main)
    Codec ID: A_AC3
    Duration: 1h 39mn
    Bit rate mode: Constant
    Bit rate: 640 Kbps
    Channel(s): 6 channels
    Channel positions: Front: L C R, Side: L R, LFE
    Sampling rate: 48.0 KHz
    Bit depth: 16 bits
    Compression mode: Lossy
    Stream size: 456 MiB (6%)
    Language: English

    Audio #2
    ID: 3
    Format: DTS
    Format/Info: Digital Theater Systems
    Codec ID: A_DTS
    Duration: 1h 39mn
    Bit rate mode: Constant
    Bit rate: 1 510 Kbps
    Channel(s): 6 channels
    Channel positions: Front: L C R, Side: L R, LFE
    Sampling rate: 48.0 KHz
    Bit depth: 24 bits
    Compression mode: Lossy
    Delay relative to video: 10ms
    Stream size: 1.05 GiB (13%)
    Language: English

    Text #1
    ID : 3
    Format : UTF-8
    Codec ID : S_TEXT/UTF8
    Codec ID/Info : UTF-8 Plain Text
    Language : Spanish

    Text #2
    ID : 4
    Format : UTF-8
    Codec ID : S_TEXT/UTF8
    Codec ID/Info : UTF-8 Plain Text
    Language : Portuguese


















    ELINK



    SUBTITULOS
    estan integrados al video
    pero acá les dejo los subtitulos para que los puedan descargar individualmente



    Español Latino

    Portugués


    -----------------------------------------------------------------------------------------------------

    Este tipo de formato, además de la mejor calidad del DVD se puede integrar.
    El formato MKV es un contenedor de video, audio, capítulos y subtítulos.
    El programa para integrarlo es el

    El mejor reproductor para verlo es el
    .










    Última edición por moling; 10/08/2012 a las 07:40

  2. Muchas gracias

  3. gracias che

  4. gracias.......!!!!!!!!!!!!!!!!!!!

  5. gracias

  6. Excelente aporte Moling!!!
    Muchas gracias!!!

  7. genial, muchas gracias!!!

  8. muchisimas graciassssssssssssssssssssssssssssssssssssssss

  9. Gracias por el estreno!

  10. Buena gracias

Página 1 de 16 1 2 3 4 5 11 ... ÚltimoÚltimo

Temas Similares

  1. [Ofrecido] Clash of the Titans (2010) (Furia de Titanes) DVDR NTSC *vgroupteam*
    Por -david- en el foro Películas DVD
    Respuestas: 154
    Último Mensaje: 19/03/2014, 20:40
  2. [Ofrecido] Furia de Titanes (Clash Of The Titans)(1981) DVDR NTSC *VgroupTeam*
    Por ciufu en el foro Películas DVD
    Respuestas: 57
    Último Mensaje: 02/02/2014, 14:49
  3. [Ofrecido] Furia De Titanes (Clash Of The Titans) MKV 720p x264 DTS *CBGB*
    Por victorem en el foro Películas HD
    Respuestas: 52
    Último Mensaje: 03/11/2012, 00:47
  4. [Ofrecido] Wrath of the Titans 2012 1080p.BluRay.x264[LATINO/INGLES][Secuela/Accion]
    Por reset11 en el foro Películas HD Descarga Directa
    Respuestas: 1
    Último Mensaje: 07/09/2012, 14:25

Etiquetas para este Tema

PRINCIPAL  FORO  LISTADOS DE ELINKS  CUENTA  AYUDA