Harry Potter y la Piedra Filosofal (2001) HD 720p DTS 5.1


         

Página 1 de 11 1 2 3 4 5 ... ÚltimoÚltimo
Resultados 1 al 10 de 102

harry potter y la piedra filosofal hd latino

descargar harry potter y la piedra filosofal latino hd

harry potter y la piedra filosofal latino hd

harry potter y la piedra filosofal HD 720p

descargar harry potter y la piedra filosofal hd

harry potter y la piedra filosofal 720p latino

Harry potter y la piedra filosofal audio latino HD

descargar harry potter y la piedra filosofal subtitulada HD

harry potter y la piedra filosofal hd descargar

harry potter y la piedra filosofal descargar hd

harry potter y la piedra filosofal subtitulada hd

descargar harry potter y la piedra filosofal hd latino

harry potter y la piedra filosofal hd subtitulada

descargar harry potter y la piedra filosofal hd audio latino

harry potter y la piedra filosofal latino 720p

harry potter 1 hd latino

descargar harry potter y la piedra filosofal audio latino hd

harry potter




  1. #1
    Moderador
    Avatar de moling
    Fecha de Ingreso
    13 abr, 07
    Ubicación
    al tope de la montaña
    Mensajes
    6,224
    Compartir en:
    Compartir en Facebook  Compartir en Twitter

    Predeterminado Harry Potter y la Piedra Filosofal (2001) HD 720p DTS 5.1

    VGROUPNETWORK
    PRESENTA








    INFORMACION DE LA PELICULA

    Titulo Original: Harry Potter and the Philosopher´s StoneAño: 2001
    Duración
    : 158 min.
    Pais
    : USA | UK
    Director
    : Chris Columbus
    Guión
    : Steve Kloves (basada en la novela de J.K. Rowling)
    Musica
    : John Williams
    Fotografía
    : John Seale
    Reparto
    : Daniel Radcliffe, Rupert Grint, Emma Watson, John Cleese, Robbie Coltrane, Warwick Davis, Richard Griffiths, Richard Harris, Ian Hart, John Hurt, Alan Rickman, Fiona Shaw, Maggie Smith, Julie Walters, Tom Felton, Zoe Wanamaker, David Bradley, Bonnie Wright, Chris Rankin, James Phelps, Oliver Phelps, Harry Melling, Sean Biggerstaff, Geraldine Somerville, Jamie Waylett, Josh Herdman, Devon Murray, Alfie Enoch, Adrian Rawlins, Ray Fearon, Nina Young, Richard Bremmer, Saunders Triplets, Verne Troyer, Harry Taylor, Leslie Phillips, Eleanor Columbus, Elizabeth Spriggs, Danielle Tabor, Emily Dale, Matthew Lewis, Terence Bayler
    Productora
    : Coproducción GB-USA; Warner Bros. Pictures / Heyday Films / 1492 Films / Duncan Henderson
    Web Oficial
    :
    Género
    : Adventura | Familiar | Fantasía

    SINOPSIS

    Harry Potter se entera, el día de su décimo primer cumpleaños, de que es el hijo huérfano de dos poderosos hechiceros, y que él mismo también posee poderes mágicos. En el colegio Hogwarts de Magia y Hechicería, junto con otros niños que también tienen algún tipo de poderes y donde aprenderán todo lo necesario para ser magos, Harry se embarcará en la aventura de su vida. (FILMAFFINITY)

    DETALLES TÉCNICOS DEL LANZAMIENTO

    Formato: Matroska
    Tamaño del archivo: 7.10 GiB
    Duración: 2h 38mn
    bit rate promedio: 6 397 Kbps
    Encoded : UTC 2011-01-05 05:51:41
    armado con: mkvmerge v3.2.0 ('Beginnings') built on Feb 12 2010 16:46:17
    librería de escritura : libebml v0.7.9 + libmatroska v0.8.1
    -------------------------------------------------------------------------------
    Especificos del video
    ID: 1
    Format profile: High@L4.1
    Format settings, CABAC: Yes
    Format settings, ReFrames : 8 frames
    Codec ID: V_MPEG4/ISO/AVC
    Bit rate: 4 886 Kbps
    Ancho: 1 280 pixels
    Altura: 544 pixels
    Relación de aspecto: 2.35:1 (anamorfico)
    Frame rate: 23.976 fps (NTSC)
    Color space: YUV
    Chroma subsampling: 4:2:0
    Bit depth: 8 bits
    Scan type: Progressive
    Bits/(Pixel*Frame): 0.293
    Stream size: 5.28 GiB (74%)
    ----------------------------------------------------
    Audio
    ID: 2
    Formato: DTS
    Format/Info: Digital Theater Systems
    Codec ID: A_DTS
    Duración: 2h 38mn
    Bit rate mode: Constant
    Bit rate: 1 510 Kbps
    Channel(s): 6 channels/ DTS (5.1)
    Sampling rate: 48.0 KHz
    Bit depth: 16 bits
    Stream size: 1.68 GiB (24%)
    Title: English DTS 1536kb/s
    Idioma: Inglés

    -----------------------------------------------------------------------------------------
    ELINK

    Registrate

    SUBTITULOS


    -----------------------------------------------------------------------------------------------------

    Este tipo de formato, además de la mejor calidad del DVD se puede integrar.
    El formato MKV es un contenedor de video, audio, capítulos y subtítulos.
    El programa para integrarlo es el
    El mejor reproductor para verlo es el .



    en cualquier momento se me ocurre que poner de firma

  2. #2
    Administrador Avatar de Coyotesonico
    Fecha de Ingreso
    30 ene, 07
    Ubicación
    En la frontera de la Web
    Mensajes
    4,681

    Predeterminado

    ahh bueno, muchas graciasssss

  3. #3
    Administrador Avatar de huscarle
    Fecha de Ingreso
    14 ago, 05
    Ubicación
    Al otro lado del río
    Mensajes
    13,739

    Predeterminado

    Muchas gracias Moling!!!!
    Bajando y compartiendo!!!


  4. #4
    Admin ® Avatar de punk77
    Fecha de Ingreso
    26 sep, 06
    Ubicación
    L.A.
    Mensajes
    12,886

    Predeterminado

    Gracias por el aporte!

  5. #5
    Administrador Avatar de vgroup
    Fecha de Ingreso
    13 ago, 05
    Ubicación
    Zona Oeste
    Mensajes
    3,874

    Predeterminado

    Gracias !!!

  6. #6
    Administrador Avatar de victorem
    Fecha de Ingreso
    10 ago, 07
    Ubicación
    Salta - Capital
    Mensajes
    9,409

    Predeterminado

    Excelente Moling! Muchas Gracias


    __Compartir es ayudar - Agradecer no cuesta nada__

  7. #7
    Super Administrador Avatar de ciufu
    Fecha de Ingreso
    05 feb, 06
    Ubicación
    En todos lados
    Mensajes
    23,536

    Predeterminado

    genial, gracias

  8. #8
    Distribuidor VG Avatar de adhamor
    Fecha de Ingreso
    02 nov, 09
    Ubicación
    Venezuela
    Mensajes
    1,409

    Predeterminado

    gracias

  9. #9
    Usuario
    Fecha de Ingreso
    22 jun, 09
    Mensajes
    598

    Predeterminado

    gracias!!!

  10. #10
    Usuario
    Fecha de Ingreso
    19 may, 06
    Mensajes
    378

    Predeterminado

    Gracias!!!

Página 1 de 11 1 2 3 4 5 ... ÚltimoÚltimo

Temas Similares

  1. [Ofrecido] Harry Potter y la piedra filosofal (2001) A.latino DVDR NTSC *vgroupteam*
    Por -david- en el foro Películas DVD con Audio Latino
    Respuestas: 125
    Último Mensaje: 15/11/2014, 14:25
  2. [Ofrecido] Harry Potter 1/2/3/4/5/6 DVD Latino
    Por xskebix en el foro Películas Descarga Directa
    Respuestas: 4
    Último Mensaje: 05/08/2011, 18:03
  3. Harry Potter And The Deathly Hallows ( Harry Potter 7)
    Por Moonesia en el foro eBooks y Revistas
    Respuestas: 10
    Último Mensaje: 09/08/2009, 21:52
  4. [Ofrecido] Libros de Harry Potter (7)
    Por NNP22 en el foro eBooks y Revistas
    Respuestas: 2
    Último Mensaje: 07/01/2008, 12:39

Etiquetas para este Tema

Publicidad  Contacto  Denuncias  Prensa  Labs  Reglas  RSS

Términos y condiciones  Políticas de privacidad

Búsqueda Avanzada
PRINCIPAL  FORO  LISTADOS DE ELINKS  CUENTA  AYUDA