Harry Potter y la Piedra Filosofal (2001) HD 720p DTS 5.1


         

harry potter y la piedra filosofal hd latino

descargar harry potter y la piedra filosofal latino hd

harry potter y la piedra filosofal latino hd

harry potter y la piedra filosofal HD 720p

descargar harry potter y la piedra filosofal hd

harry potter y la piedra filosofal 720p latino

Harry potter y la piedra filosofal audio latino HD

descargar harry potter y la piedra filosofal subtitulada HD

harry potter y la piedra filosofal hd descargar

harry potter y la piedra filosofal descargar hd

harry potter y la piedra filosofal subtitulada hd

descargar harry potter y la piedra filosofal hd latino

harry potter y la piedra filosofal hd subtitulada

descargar harry potter y la piedra filosofal hd audio latino

harry potter y la piedra filosofal latino 720p

harry potter 1 hd latino

descargar harry potter y la piedra filosofal audio latino hd

harry potter




  1. VGROUPNETWORK
    PRESENTA








    INFORMACION DE LA PELICULA

    Titulo Original: Harry Potter and the Philosopher´s StoneAño: 2001
    Duración
    : 158 min.
    Pais
    : USA | UK
    Director
    : Chris Columbus
    Guión
    : Steve Kloves (basada en la novela de J.K. Rowling)
    Musica
    : John Williams
    Fotografía
    : John Seale
    Reparto
    : Daniel Radcliffe, Rupert Grint, Emma Watson, John Cleese, Robbie Coltrane, Warwick Davis, Richard Griffiths, Richard Harris, Ian Hart, John Hurt, Alan Rickman, Fiona Shaw, Maggie Smith, Julie Walters, Tom Felton, Zoe Wanamaker, David Bradley, Bonnie Wright, Chris Rankin, James Phelps, Oliver Phelps, Harry Melling, Sean Biggerstaff, Geraldine Somerville, Jamie Waylett, Josh Herdman, Devon Murray, Alfie Enoch, Adrian Rawlins, Ray Fearon, Nina Young, Richard Bremmer, Saunders Triplets, Verne Troyer, Harry Taylor, Leslie Phillips, Eleanor Columbus, Elizabeth Spriggs, Danielle Tabor, Emily Dale, Matthew Lewis, Terence Bayler
    Productora
    : Coproducción GB-USA; Warner Bros. Pictures / Heyday Films / 1492 Films / Duncan Henderson
    Web Oficial
    :

    Género
    : Adventura | Familiar | Fantasía

    SINOPSIS

    Harry Potter se entera, el día de su décimo primer cumpleaños, de que es el hijo huérfano de dos poderosos hechiceros, y que él mismo también posee poderes mágicos. En el colegio Hogwarts de Magia y Hechicería, junto con otros niños que también tienen algún tipo de poderes y donde aprenderán todo lo necesario para ser magos, Harry se embarcará en la aventura de su vida. (FILMAFFINITY)

    DETALLES TÉCNICOS DEL LANZAMIENTO

    Formato: Matroska
    Tamaño del archivo: 7.10 GiB
    Duración: 2h 38mn
    bit rate promedio: 6 397 Kbps
    Encoded : UTC 2011-01-05 05:51:41
    armado con: mkvmerge v3.2.0 ('Beginnings') built on Feb 12 2010 16:46:17
    librería de escritura : libebml v0.7.9 + libmatroska v0.8.1
    -------------------------------------------------------------------------------
    Especificos del video
    ID: 1
    Format profile: High@L4.1
    Format settings, CABAC: Yes
    Format settings, ReFrames : 8 frames
    Codec ID: V_MPEG4/ISO/AVC
    Bit rate: 4 886 Kbps
    Ancho: 1 280 pixels
    Altura: 544 pixels
    Relación de aspecto: 2.35:1 (anamorfico)
    Frame rate: 23.976 fps (NTSC)
    Color space: YUV
    Chroma subsampling: 4:2:0
    Bit depth: 8 bits
    Scan type: Progressive
    Bits/(Pixel*Frame): 0.293
    Stream size: 5.28 GiB (74%)
    ----------------------------------------------------
    Audio
    ID: 2
    Formato: DTS
    Format/Info: Digital Theater Systems
    Codec ID: A_DTS
    Duración: 2h 38mn
    Bit rate mode: Constant
    Bit rate: 1 510 Kbps
    Channel(s): 6 channels/ DTS (5.1)
    Sampling rate: 48.0 KHz
    Bit depth: 16 bits
    Stream size: 1.68 GiB (24%)
    Title: English DTS 1536kb/s
    Idioma: Inglés

    -----------------------------------------------------------------------------------------
    ELINK



    SUBTITULOS


    -----------------------------------------------------------------------------------------------------

    Este tipo de formato, además de la mejor calidad del DVD se puede integrar.
    El formato MKV es un contenedor de video, audio, capítulos y subtítulos.
    El programa para integrarlo es el

    El mejor reproductor para verlo es el
    .




  2. ahh bueno, muchas graciasssss

  3. Muchas gracias Moling!!!!
    Bajando y compartiendo!!!

  4. Gracias por el aporte!

  5. Gracias !!!

  6. Excelente Moling! Muchas Gracias

  7. genial, gracias

  8. gracias

  9. gracias!!!

  10. Gracias!!!

Página 1 de 11 1 2 3 4 5 ... ÚltimoÚltimo

Temas Similares

  1. [Ofrecido] Harry Potter y la piedra filosofal (2001) A.latino DVDR NTSC *vgroupteam*
    Por -david- en el foro Películas DVD con Audio Latino
    Respuestas: 124
    Último Mensaje: 13/07/2014, 10:28
  2. [Ofrecido] Harry Potter 1/2/3/4/5/6 DVD Latino
    Por xskebix en el foro Películas Descarga Directa
    Respuestas: 4
    Último Mensaje: 05/08/2011, 17:03
  3. Harry Potter And The Deathly Hallows ( Harry Potter 7)
    Por Moonesia en el foro eBooks y Revistas
    Respuestas: 10
    Último Mensaje: 09/08/2009, 20:52
  4. [Ofrecido] Libros de Harry Potter (7)
    Por NNP22 en el foro eBooks y Revistas
    Respuestas: 2
    Último Mensaje: 07/01/2008, 11:39

Etiquetas para este Tema

PRINCIPAL  FORO  LISTADOS DE ELINKS  CUENTA  AYUDA