El Hobbit: La Batalla de los Cinco Ejércitos (2014)


El Hobbit: La Batalla de los Cinco Ejércitos (2014)
VER TRAILER




Título original
The Hobbit: The Battle of the Five Armies (The Hobbit 3)
Año
2014
Duración
144 min.
País
Estados Unidos Estados Unidos
Director
Peter Jackson
Guión
Philippa Boyens, Peter Jackson, Fran Walsh, Guillermo del Toro (Novela: J.R.R. Tolkien)
Música
Howard Shore
Fotografía
Andrew Lesnie
Reparto
Martin Freeman, Ian McKellen, Richard Armitage, Luke Evans, Orlando Bloom, Aidan Turner, Evangeline Lilly, Lee Pace, Ryan Gage, Ken Stott, Graham McTavish, James Nesbitt, Jed Brophy, Stephen Hunter, John Callen, Adam Brown, Dean O'Gorman, William Kircher, Peter Hambleton, Mark Hadlow, Cate Blanchett, Hugo Weaving, Billy Connolly, Christopher Lee, Stephen Fry, Ian Holm, Sylvester McCoy, Manu Bennett
Productora
MGM / New Line Cinema / WingNut Films
Género
Fantástico. Aventuras. Acción | Espada y brujería. Secuela. 3-D
Web oficial
http://www.thehobbitblog.com/
Sinopsis
Después de haber recuperado el reino del Dragón Smaug en la montaña, la Compañía ha desencadenado, sin querer, una potencia maligna. Un Smaug enfurecido vuela hacia la Ciudad del Lago para acabar con cualquier resto de vida. Obsesionado con las enormes riquezas en su poder, el rey enano Thorin se vuelve codicioso, mientras Bilbo intenta hacerle entrar en razón haciendo algo desesperado y peligroso. Pero hay aún mayores peligros por delante. Sin la ayuda del mago Gandalf, su gran enemigo Sauron ha enviado legiones de orcos hacia la Montaña Solitaria en un ataque épico. Cuando la oscuridad se cierna sobre ellos, las razas de los Enanos, Elfos y Hombres deberán decidir si unirse o ser destruidos. Bilbo se encontrará así en la batalla épica de los Cinco Ejércitos, donde el futuro de la Tierra Media está en juego.


General

Format : AVI
Format/Info : Audio Video Interleave
File size : 1.90 GiB
Duration : 2h 24mn
Overall bit rate : 1 884 Kbps
Writing application : VirtualDubMod 1.5.10.2 (build 2542/release)
Writing library : VirtualDubMod build 2542/release

Video
ID : 0
Format : MPEG-4 Visual
Format profile : Advanced Simple@L5
Format settings, BVOP : 2
Format settings, QPel : Yes
Format settings, GMC : No warppoints
Format settings, Matrix : Default (H.263)
Muxing mode : Packed bitstream
Codec ID : XVID
Codec ID/Hint : XviD
Duration : 2h 24mn
Bit rate : 1 680 Kbps
Width : 720 pixels
Height : 304 pixels
Display aspect ratio : 2.35:1
Frame rate : 29.970 fps
Color space : YUV
Chroma subsampling : 4:2:0
Bit depth : 8 bits
Scan type : Progressive
Compression mode : Lossy
Bits/(Pixel*Frame) : 0.256
Stream size : 1.69 GiB (89%)
Writing library : XviD 1.2.1 (UTC 2008-12-04)

Audio
ID : 1
Format : MPEG Audio
Format version : Version 1
Format profile : Layer 3
Codec ID : 55
Codec ID/Hint : MP3
Duration : 2h 24mn
Bit rate mode : Constant
Bit rate : 192 Kbps
Channel(s) : 2 channels
Sampling rate : 48.0 KHz
Compression mode : Lossy
Stream size : 198 MiB (10%)
Alignment : Aligned on interleaves
Interleave, duration : 33 ms (1.00 video frame)
Interleave, preload duratio : 504 ms
Writing library : LAME3.99r
Encoding settings : -m s -V 4 -q 3 -lowpass 18.6 -b 192







Código:
 *UPLOADABLE* 
http://www.uploadable.ch/file/j6BEttW5YZEq
http://www.uploadable.ch/file/9PvSQR95rCp2
http://www.uploadable.ch/file/WJxGK9HRCVuK
http://www.uploadable.ch/file/tuvh64n2T9Cz

 *4UPFILES* 
http://4upfiles.com/liz6e003luk6
http://4upfiles.com/7cpu8nl4yiss
http://4upfiles.com/gxw6e50nol4v
http://4upfiles.com/7c0zjajo8pal

 *CLOUDZILLA* 
http://www.cloudzilla.to/share/file/PHRSM1FWW0S4WU43AC2XBLIIW
http://www.cloudzilla.to/share/file/0PJPAW6VGABU4VUC12ET26MPD
http://www.cloudzilla.to/share/file/AIHYIA6XBM5N1KILQ6M0R6T56
http://www.cloudzilla.to/share/file/SBAFMRPJLNVBOAG2IT10FR6UU

 *UPLOADED* 
http://ul.to/fgztnse6
http://ul.to/iqj4gphx
http://ul.to/ei847008
http://ul.to/3vnc6vg9

 * * 
   
       
*SERVIDORES FREE + SERVIDORES DE EXCELENTE VELOCIDAD*