Relatos salvajes (2014)


Relatos salvajes (2014)
VER TRAILER




Título original
Relatos salvajes
Año
2014
Duración
119 min.
País
Argentina Argentina
Director
Damián Szifrón
Guión
Damián Szifrón
Música
Gustavo Santaolalla
Fotografía
Javier Juliá
Reparto
Ricardo Darín, Darío Grandinetti, Leonardo Sbaraglia, Érica Rivas, Oscar Martínez, Julieta Zylberberg, Rita Cortese, María Onetto, Osmar Núñez, Nancy Dupláa, María Marull, Germán de Silva, Marcelo Pozzi, Diego Gentile, Alan Daicz, Liliana Weimer, Claudio Delan, Lucila Mangone, Federico Liss, Walter Donado, Diego Velázquez, Margarita Molfino, César Bordón, Mónica Villa, Juan Santiago Linari
Productora
Coproducción Argentina-España; Corner Producciones / Kramer & Sigman Films / El Deseo / Telefé / ICAA / Instituto Nacional de Cine y Artes Audiovisuales (INCAA)
Género
Comedia. Drama | Comedia negra. Película de episodios
Web oficial
http://www.relatos-salvajes.com/
Sinopsis
La película consta de seis episodios que alternan la intriga, la comedia y la violencia. Sus personajes se verán empujados hacia el abismo y hacia el innegable placer de perder el control, cruzando la delgada línea que separa la civilización de la barbarie.


General

Format : AVI
Format/Info : Audio Video Interleave
File size : 1.62 GiB
Duration : 1h 56mn
Overall bit rate : 1 984 Kbps
Writing application : VirtualDubMod 1.5.10.2 (build 2542/release)
Writing library : VirtualDubMod build 2542/release

Video
ID : 0
Format : MPEG-4 Visual
Format profile : Advanced Simple@L5
Format settings, BVOP : 2
Format settings, QPel : No
Format settings, GMC : No warppoints
Format settings, Matrix : Default (MPEG)
Codec ID : XVID
Codec ID/Hint : XviD
Duration : 1h 56mn
Bit rate : 1 654 Kbps
Width : 720 pixels
Height : 304 pixels
Display aspect ratio : 2.35:1
Frame rate : 25.000 fps
Color space : YUV
Chroma subsampling : 4:2:0
Bit depth : 8 bits
Scan type : Progressive
Compression mode : Lossy
Bits/(Pixel*Frame) : 0.302
Stream size : 1.35 GiB (83%)
Writing library : XviD 1.2.1 (UTC 2008-12-04)

Audio
ID : 1
Format : MPEG Audio
Format version : Version 1
Format profile : Layer 3
Codec ID : 55
Codec ID/Hint : MP3
Duration : 1h 56mn
Bit rate mode : Constant
Bit rate : 320 Kbps
Channel(s) : 2 channels
Sampling rate : 44.1 KHz
Compression mode : Lossy
Stream size : 267 MiB (16%)
Alignment : Split accross interleaves
Interleave, duration : 40 ms (1.00 video frame)
Interleave, preload duratio : 500 ms






*SIN CONTRASEÑAS | FACÍL EXTRACCIÓN*

Código:
UPLOADABLE - CLOUDZILLA - UPLOADED - ROCKFILE - MEDIAFREE

http://www.keeplinks.eu/p/54eb4f53c97cd

 *1FICHIER* 
   
       
https://1fichier.com/?8c3rkq35ou
https://1fichier.com/?sguvjd8rct
*SERVIDORES FREE + SERVIDORES DE EXCELENTE VELOCIDAD*