Bolt [2008] DvDrip Audio Dual(Latino-Inglés)


         

Resultados 1 al 4 de 4

  1. #1
    Usuario Avatar de Lisabar
    Fecha de Ingreso
    27 jun, 08
    Ubicación
    Resistencia
    Mensajes
    8
    Compartir en:
    Compartir en Facebook  Compartir en Twitter

    Predeterminado Bolt [2008] DvDrip Audio Dual(Latino-Inglés)



    Dirección: Chris Williams y Byron Howard.
    País: USA.
    Año: 2008.
    Duración: 96 min.
    Género: Animación, comedia.
    Doblaje original: John Travolta (Bolt), Miley Cyrus (Penny), Susie Essman (Mittens), Mark Walton (Rhino), Malcolm McDowell (Dr. Calico), James Lipton (el director).
    Guión: Chris Williams y Dan Fogelman.
    Producción: Clark Spencer.
    Música: John Powell.
    Dirección artística: Paul A. Felix.
    Sinopsis: Para Bolt, la estrella canina de un famoso programa de televisión, todos los días están repletos de aventuras, peligros e intriga, al menos hasta que las cámaras dejan de grabar. Bolt está convencido de que todos sus increíbles poderes y hazañas son reales. Pero cuando es enviado desde sus estudios de Hollywood a Nueva York, comienza su mayor aventura en el mundo real, donde se da cuenta de que su vida es un espejismo. Con la ayuda de dos extraños compañeros de viaje –un hastiado y abandonado gato de compañía de nombre Mittens y un hámster obsesionado por la televisión llamado Rhino–, Bolt descubre que no necesita superpoderes para ser un héroe.









    .: General :.
    Complete name : Bolt.[2008].Dual.Audio.XviD-NeoSub.avi
    Format : AVI
    Format/Info : Audio Video Interleave
    File size : 965 MiB
    Duration : 1h 36mn
    Overall bit rate : 1 400 Kbps
    Writing application : VirtualDubMod 1.5.10.2 (build 2540/release)
    Writing library : VirtualDubMod build 2540/release
    .: Video :.
    Format : MPEG-4 Visual
    Format profile : Streaming Video@L1
    Format settings, BVOP : Yes
    Format settings, QPel : No
    Format settings, GMC : No warppoints
    Format settings, Matrix : Default
    Codec ID : DX50
    Codec ID/Hint : DivX 5
    Duration : 1h 36mn
    Bit rate : 874 Kbps
    Width : 640 pixels
    Height : 352 pixels
    Display aspect ratio : 16/9
    Frame rate : 23.976 fps
    Resolution : 24 bits
    Colorimetry : 4:2:0
    Scan type : Progressive
    Bits/(Pixel*Frame) : 0.162
    Stream size : 602 MiB (62%)
    Writing library : XviD 50
    .: Audio 1 (Latin Spanish) :.
    Format : AC-3 (5.1)
    Format/Info : Audio Coding 3
    Codec ID : 2000
    Duration : 1h 36mn
    Bit rate mode : Constant
    Bit rate : 384 Kbps
    Channel(s) : 6 channels
    Channel positions : Front: L C R, Rear: L R, LFE
    Sampling rate : 48.0 KHz
    Stream size : 265 MiB (27%)
    Alignment : Split accross interleaves
    Interleave, duration : 42 ms (1.00 video frame)
    Interleave, preload duration : 500 ms
    .: Audio 2 (English) :.
    Format : AC-3 (2.0)
    Format/Info : Audio Coding 3
    Codec ID : 2000
    Duration : 1h 36mn
    Bit rate mode : Constant
    Bit rate : 128 Kbps
    Channel(s) : 2 channels
    Channel positions : L R
    Sampling rate : 48.0 KHz
    Stream size : 88.2 MiB (9%)
    Alignment : Split accross interleaves
    Interleave, duration : 42 ms (1.00 video frame)
    Interleave, preload duration : 500 ms


    RapidShare: Easy Filehosting
    RapidShare: Easy Filehosting
    RapidShare: Easy Filehosting
    RapidShare: Easy Filehosting
    RapidShare: Easy Filehosting
    RapidShare: Easy Filehosting
    RapidShare: Easy Filehosting
    RapidShare: Easy Filehosting
    RapidShare: Easy Filehosting
    RapidShare: Easy Filehosting


    Última edición por -david-; 25/06/2009 a las 22:02 Razón: Recorda Agregar en el titulo el prefijo [Ofrecido] desde el desplegable. Gracias. Por cierto te corregi el titulo.

  2. #2
    Super Administrador Avatar de ciufu
    Fecha de Ingreso
    05 feb, 06
    Ubicación
    En todos lados
    Mensajes
    29,359

    Predeterminado

    gracias!!
    Excelente Equipo - no te pierdas esta oportunidad

    Muy buena Hyip

  3. #3
    Usuario
    Fecha de Ingreso
    27 may, 06
    Mensajes
    16

    Predeterminado

    yo no entiendo si hay error pero a mi me generó una sola pelicula con los 2 audios al mismo tiempo.... se escucha al mismo tiempo en ingles y latino. imposible de entender. yo pensaba que era una imagen para generar audio diferenciado.
    si tengo ingles y españos al mismo tiempo lo termino escuchando en ESPERANTO.
    es porque me falta algun programa o simplemente mi cerebro no funciona correctamente.

    igual muchisimas gracias por la molesta de ponerlo. es mucho mas de lo que yo hago solamente bajandolo

  4. #4
    Bea
    Bea está desconectado
    Usuario
    Fecha de Ingreso
    05 abr, 06
    Ubicación
    Cordoba
    Mensajes
    39

    Predeterminado

    Muchas gracias!!!

Temas Similares

  1. [Ofrecido] Bolt (2008) DVDR NTSC (Audio Latino) *VgroupTeam*
    Por AntraX en el foro Infantiles DVD
    Respuestas: 93
    Último Mensaje: 24/11/2012, 17:50
  2. [Ofrecido] Stargate atlantis (Primera Temporada) (dvdrip) (Audio dual Latino-ingles)
    Por funebrero en el foro Miniseries y Temporadas Completas
    Respuestas: 8
    Último Mensaje: 30/07/2012, 16:57
  3. [Ofrecido] Stargate sg1 - tercera Temporada (DVDrip audio dual latino/ingles)
    Por funebrero en el foro Series Descarga Directa
    Respuestas: 6
    Último Mensaje: 04/06/2011, 16:42
  4. [Ofrecido] Bolt (Audio Latino) 2008 DVD-Screener
    Por hercules14 en el foro Infantiles
    Respuestas: 41
    Último Mensaje: 19/02/2010, 17:05
  5. [Ofrecido] Stargate atlantis - Temporada 1 (DVDrip audio dual latino/ingles)
    Por funebrero en el foro Series Descarga Directa
    Respuestas: 1
    Último Mensaje: 23/03/2009, 18:45

Etiquetas para este Tema

Publicidad  Contacto  Denuncias  Prensa  Labs  Reglas  RSS

Términos y condiciones  Políticas de privacidad

Búsqueda Avanzada
PRINCIPAL  FORO  LISTADOS DE ELINKS  CUENTA  AYUDA