IMSA WeatherTech SportsCar Championship (2019)[HDTV 720p][Español][2/12][VS]


         

Resultados 1 al 2 de 2

  1. #1
    Usuario
    Fecha de Ingreso
    01 mar, 19
    Mensajes
    81
    Compartir en:
    Compartir en Facebook  Compartir en Twitter

    Predeterminado IMSA WeatherTech SportsCar Championship (2019)[HDTV 720p][Español][2/12][VS]















    IMSA WeatherTech SportsCar Championship


    Temporada actual: Temporada 2019
    Temporada inicial: 2014
    País: Estados Unidos
    Categoría: DPI; Gran Turismo; LMP
    Escudería campeona: P: Action Express Racing; GTLM: SRT Motorsports; GTD: Turner Motorsports




    Rnd. Carrera Longitud Las clases Circuito Ubicación Fecha
    1 Rolex 24 en Daytona 24 horas Todos Daytona International Speedway Playa de Daytona, Florida 26 al 27 de enero
    2 Mobil 1 Doce Horas De Sebring 12 horas Todos Sebring International Raceway Sebring, Florida 16 de marzo
    3 BUBBA Burger Sports Car Gran Premio en Long Beach 1 hora 40 minutos [13] DPi, GTLM Circuito de Long Beach Street Playa larga, california 13 de abril
    4 Acura Sports Car Challenge en Mid-Ohio 2 horas 40 minutos [13] Todos Curso de automóvil deportivo en Mid-Ohio Lexington, Ohio 5 de Mayo
    5 Chevrolet Detroit Grand Prix 1 hora 40 minutos [13] DPi, GTD [N 1] El Raceway en Belle Isle Detroit, Michigan 1 ° de Junio
    6 Las seis horas de Sahlen en The Glen 6 horas Todos Watkins Glen Internacional Watkins Glen, Nueva York 30 de Junio
    7 Mobil 1 SportsCar Grand Prix 2 horas 40 minutos [13] Todos Canadian Tire Motorsport Park Bowmanville, Ontario 07 de julio
    8 Gran Premio del Noreste 2 horas 40 minutos [13] GTLM, GTD Parque Lime Rock Lakeville, Connecticut 20 de julio
    9 Road Race Showcase en Road America 2 horas 40 minutos [13] Todos Carretera america Elkhart Lake, Wisconsin 4 de agosto
    10 Michelin GT Challenge en VIR 2 horas 40 minutos [13] GTLM, GTD Virginia International Raceway Alton, Virginia 25 de agosto
    11 WeatherTech Monterey Grand Prix 2 horas 40 minutos [13] Todos WeatherTech Raceway Laguna Seca Monterey, California 15 de Septiembre
    12 Motul Petit Le Mans 10 horas Todos Michelin Raceway Road Atlanta Braselton, Georgia octubre 12










    Calidad: HDTV 720p
    Formato: MKV
    Resolución: 1280x720p
    Video: AVC x264
    Fuente: FOX Sports 3
    Audio: Español
    Tamaño: 4 GB/8 GB Apróx.
    Duración: 4 horas/9 Horas Dependiendo del evento
    Subtítulos: No
    By: Parrix










    Descomprimir con winrar, 7zip o programa similar





    MediaInfo:


    Código:
    
    General
    Complete name                            : Imsa.12.H0ras.Sebring.Parte.1.72O.mkv
    Format                                   : MPEG-4
    Format profile                           : Base Media / Version 2
    Codec ID                                 : mp42 (mp42)
    File size                                : 2.15 GiB
    Duration                                 : 2 h 11 min
    Overall bit rate                         : 2 336 kb/s
    Codirector                               : codirector
    Production studio                        : studio
    ContentType                              : Unknown Type
    Encoded date                             : UTC 2019-03-17 03:43:36
    Tagged date                              : UTC 2019-03-17 03:43:36
    FileExtension_Invalid                    : mov mp4 m4v m4a m4b m4p m4r 3ga 3gpa 3gpp 3gp 3gpp2 3g2 k3g jpm jpx mqv ismv isma ismt f4a f4b f4v
    
    
    Video
    ID                                       : 1
    Format                                   : AVC
    Format/Info                              : Advanced Video Codec
    Format profile                           : Main@L4.1
    Format settings                          : CABAC / 2 Ref Frames
    Format settings, CABAC                   : Yes
    Format settings, ReFrames                : 2 frames
    Format settings, GOP                     : M=3, N=25
    Muxing mode                              : Container profile=Baseline@3.0
    Codec ID                                 : avc1
    Codec ID/Info                            : Advanced Video Coding
    Duration                                 : 2 h 11 min
    Source duration                          : 2 h 11 min
    Bit rate                                 : 2 201 kb/s
    Width                                    : 1 280 pixels
    Height                                   : 720 pixels
    Display aspect ratio                     : 16:9
    Frame rate mode                          : Constant
    Frame rate                               : 29.970 (30000/1001) FPS
    Color space                              : YUV
    Chroma subsampling                       : 4:2:0
    Bit depth                                : 8 bits
    Scan type                                : Progressive
    Bits/(Pixel*Frame)                       : 0.080
    Stream size                              : 2.02 GiB (94%)
    Source stream size                       : 2.02 GiB (94%)
    Language                                 : English
    Encoded date                             : UTC 1953-03-16 03:43:36
    Tagged date                              : UTC 1953-03-16 03:43:36
    Codec configuration box                  : avcC
    
    
    Audio
    ID                                       : 2
    Format                                   : AAC LC
    Format/Info                              : Advanced Audio Codec Low Complexity
    Codec ID                                 : mp4a-40-2
    Duration                                 : 2 h 11 min
    Bit rate mode                            : Constant
    Bit rate                                 : 128 kb/s
    Channel(s)                               : 2 channels
    Channel layout                           : L R
    Sampling rate                            : 48.0 kHz
    Frame rate                               : 46.875 FPS (1024 SPF)
    Compression mode                         : Lossy
    Stream size                              : 120 MiB (5%)
    Title                                    : Stereo
    Language                                 : English
    Default                                  : Yes
    Alternate group                          : 1
    Encoded date                             : UTC 1953-03-16 03:43:36
    Tagged date                              : UTC 1953-03-16 03:43:36







    El WeatherTech SportsCar Championship es un campeonato de automovilismo de velocidad para sport prototipos y gran turismos que se disputa en América del Norte a partir del año 2014. Organizado por la International Motor Sports Association, surgió de la fusión de la American Le Mans Series y la Grand-Am Rolex Sports Car Series, dos campeonatos que habían coexistido desde 1999, luego de que el Campeonato IMSA GT dejara de disputarse tras 1998. Por ello, se denominó inicialmente United SportsCar Championship, aunque la palabra "United" se quitó para la temporada 2016. El certamen es el más importante de su tipo en el continente, e incluye numerosas carreras de resistencia clásicas, entre ellas las 24 Horas de Daytona, las 12 Horas de Sebring y Petit Le Mans.


















    Se recomienda descargar con JDownloader v2, Mipony o programa similar





    Descarga todo de un servidor FREE + 1 parte NO FREE














    Última edición por punk77; 14/04/2019 a las 12:03

  2. #2
    Admin ® Avatar de punk77
    Fecha de Ingreso
    26 sep, 06
    Ubicación
    L.A.
    Mensajes
    13,059

    Predeterminado


Publicidad  Contacto  Denuncias  Prensa  Labs  Reglas  RSS

Términos y condiciones  Políticas de privacidad

Búsqueda Avanzada
PRINCIPAL  FORO  LISTADOS DE ELINKS  CUENTA  AYUDA