Gladiador Edición 10º aniversario (2000) -versión extendida- HD 1080p *Vgroupteam*


         

Página 1 de 9 1 2 3 4 5 ... ÚltimoÚltimo
Resultados 1 al 10 de 90

  1. #1
    Moderador
    Avatar de moling
    Fecha de Ingreso
    13 abr, 07
    Ubicación
    al tope de la montaña
    Mensajes
    6,224
    Compartir en:
    Compartir en Facebook  Compartir en Twitter

    Predeterminado Gladiador Edición 10º aniversario (2000) -versión extendida- HD 1080p *Vgroupteam*











    TÍTULO ORIGINAL: Gladiator
    AÑO: 2000
    DURACIÓN: 170 min. (edicion extendida)
    PAÍS: [Estados Unidos]
    DIRECTOR: Ridley Scott
    GUIÓN: David Franzoni, John Logan, William Nicholson (Argumento: David Franzoni)
    MÚSICA: Hans Zimmer & Lisa Gerrard
    FOTOGRAFÍA: John Mathieson
    REPARTO: Russell Crowe, Joaquin Phoenix, Connie Nielsen, Oliver Reed, Richard Harris, Derek Jacobi, Djimon Hounsou, David Schofield, John Shrapnel, Tomas Arana, Ralf Moeller, Spencer Treat Clark, David Hemmings, Tommy Flanagan, Sven-Ole Thorsen, Tony Curran
    PRODUCTORA: Universal Pictures / Dreamworks Pictures / Scott Free Productions
    PREMIOS: 2000: 5 Oscars: Mejor película, mejor actor (Russell Crowe), vestuario, sonido, efectos visuales
    2000: 2 Globos de Oro: Mejor película: Drama, bso. 5 nominaciones
    2000: 5 Premios BAFTA, incluyendo mejor película, fotografía, montaje. 15 nominaciones
    2000: 2 premios National Board of Review: Mejor diseño de producción, actor secundario
    GÉNERO: Acción. Aventuras. Drama | Antigua Roma. Esclavitud


    En el año 180, el Imperio Romano domina todo el mundo conocido. Tras la victoria sobre los bárbaros, el anciano emperador Marco Aurelio (Richard Harris) decide transferir el poder a Máximo (Russell Crowe), bravo general de sus ejércitos y hombre de inquebrantable lealtad al imperio, pero su hijo Cómodo (Joaquin Phoenix) no lo acepta y trata de asesinarlo. (FILMAFFINITY)



    Formato: Matroska
    File size: 7.62 GiB
    Duration: 2h 50mn
    Overall bit rate: 6 379 Kbps
    Encoded date: UTC 2011-05-24 05:01:24
    Writing application: mkvmerge v4.0.0 ('The Stars were mine') built on Jun 6 2010 16:18:42
    Writing library: libebml v1.0.0 + libmatroska v1.0.0

    Video
    ID: 1
    Format: AVC
    Format/Info: Advanced Video Codec
    Format profile: Main@L4.0
    Format settings, CABAC: Yes
    Format settings, ReFrames: 4 frames
    Codec ID: V_MPEG4/ISO/AVC
    Duration: 2h 50mn
    Bit rate: 5 612 Kbps
    Width: 1 920 pixels
    Height: 816 pixels
    Display aspect ratio: 2.35:1
    Frame rate mode: Variable
    Frame rate: 23.976 fps
    Color space: YUV
    Chroma subsampling: 4:2:0
    Bit depth: 8 bits
    Scan type: Progressive
    Bits/(Pixel*Frame): 0.149
    Stream size: 6.70 GiB (88%)
    Writing library: x264 core 112
    Language: English

    Audio
    ID: 2
    Format: AC-3
    Format/Info: Audio Coding 3
    Mode extension: CM (complete main)
    Codec ID: A_AC3
    Duration: 2h 50mn
    Bit rate mode: Constant
    Bit rate: 640 Kbps
    Channel(s): 6 channels
    Channel positions: Front: L C R, Side: L R, LFE
    Sampling rate: 48.0 KHz
    Bit depth: 16 bits
    Compression mode: Lossy
    Stream size: 783 MiB (10%)
    Language: English

    Text
    ID: 3
    Format: UTF-8
    Codec ID: S_TEXT/UTF8
    Codec ID/Info: UTF-8 Plain Text
    Language: Spanish

    Text #2
    ID: 4
    Format: UTF-8
    Codec ID: S_TEXT/UTF8
    Codec ID/Info: UTF-8 Plain Text
    Language: Portugues








    ELINK

    Registrate

    SUBTITULOS
    estan integrados al video


    -----------------------------------------------------------------------------------------------------
    Este tipo de formato, además de la mejor calidad del DVD se puede integrar.
    El formato MKV es un contenedor de video, audio, capítulos y subtítulos.
    El programa para integrarlo es el
    El mejor reproductor para verlo es el .




    Última edición por moling; 25/05/2011 a las 04:27
    en cualquier momento se me ocurre que poner de firma

  2. #2
    Administrador Avatar de huscarle
    Fecha de Ingreso
    14 ago, 05
    Ubicación
    Al otro lado del río
    Mensajes
    13,755

    Predeterminado

    Muchas gracias Moling, terrible aporte y en la mejor definiicón, me lo llevo!!!


  3. #3
    Administrador Avatar de victorem
    Fecha de Ingreso
    10 ago, 07
    Ubicación
    Salta - Capital
    Mensajes
    9,500

    Predeterminado

    Excelente Moling! Muchas gracias por esta peli en HD!


    __Compartir es ayudar - Agradecer no cuesta nada__

  4. #4
    Admin ® Avatar de punk77
    Fecha de Ingreso
    26 sep, 06
    Ubicación
    L.A.
    Mensajes
    13,058

    Predeterminado

    Muy buena peli, gracias!

  5. #5
    Distribuidor VG Avatar de nacho770
    Fecha de Ingreso
    14 may, 10
    Mensajes
    289

    Predeterminado

    que buena pelicula, muchas gracias

  6. #6
    Usuario
    Fecha de Ingreso
    22 jun, 09
    Mensajes
    643

    Predeterminado

    gracias

  7. #7
    Usuario
    Fecha de Ingreso
    13 ago, 05
    Ubicación
    Ituzaingo
    Mensajes
    170

    Predeterminado

    gracias volvi despues de mucho a vgroup ,bajando!!
    VAMOS ITUZAINGO CAPO DEL OESTE!!!,MIDLAND NO EXISTIS,ALEM NOS DEBES UNA.!!!



  8. #8
    Nuevo
    Fecha de Ingreso
    16 abr, 11
    Mensajes
    4

    Predeterminado

    Muchas gracias, excelente peli

  9. #9
    Nuevo
    Fecha de Ingreso
    16 abr, 11
    Mensajes
    4

    Predeterminado

    Muy buena peli

  10. #10
    modmeister Avatar de -david-
    Fecha de Ingreso
    10 dic, 06
    Mensajes
    8,245

    Predeterminado

    buenisimo y en hd que mas queres !!!


    [Vgroup] Busca Distribuidores para sus lanzamientos post: clic aquí
    .

Página 1 de 9 1 2 3 4 5 ... ÚltimoÚltimo

Temas Similares

  1. [Ofrecido] Gladiador - versión extendida (2000) NTSC *Vgroupteam*
    Por moling en el foro Películas DVD
    Respuestas: 71
    Último Mensaje: 05/10/2015, 00:25
  2. [Ofrecido] Tzar Edicion De Oro version extendida
    Por Ultimo_Templario en el foro Juegos de PC Descarga Directa
    Respuestas: 5
    Último Mensaje: 23/02/2010, 00:02
  3. [Ofrecido] Pinocchio Edicion platino 70 aniversario[DVDRip-500MB]
    Por mychem616 en el foro Películas Descarga Directa
    Respuestas: 2
    Último Mensaje: 21/03/2009, 09:55

Etiquetas para este Tema

Publicidad  Contacto  Denuncias  Prensa  Labs  Reglas  RSS

Términos y condiciones  Políticas de privacidad

Búsqueda Avanzada
PRINCIPAL  FORO  LISTADOS DE ELINKS  CUENTA  AYUDA